Usenet Downloads in voller DSL–Geschwindigkeit kostenlos testen und bis zu 300GB abstauben!

Hier findest du mehr als 25.000 Terabyte an Musik, Videos, Software, Games und vieles mehr..

Jack.Reache.2.Kein.Weg.zurueck.2016.German.DTSD.5.1.RETAiL.DL.1080p.BluRay.x264-Pate DDL Download
Jahre nachdem er sich aus dem Kommando einer Eliteeinheit der Militärpolizei zurückgezogen hat, wird der umherziehende Rächer Jack Reacher von seinem alten Leben eingeholt, als seine geschätzte Nachfolgerin im Amt, Major Susan Turner, zu Unrecht der Spionage bezichtigt wird. Reacher setzt alles aufs Spiel, um ihre Unschuld zu beweisen und die wahren Verantwortlichen hinter dem Mord an mehreren Soldaten zu entlarven...

Action
1080p
Größe
11734 MB (12 Parts)
RAR-Passwort
(kein Passwort)
Sprache
Datum
16.02.2017
Uploader
ShadowEagle


General
Unique ID                                : 201018597882386668308192768237310471689 (0x973AC61177D75B29AC1C07D664AE6E09)
Complete name                            : F:\MOVIEZ\Jack Reacher 2 Kein Weg zurueck 2016 German DTSD 5 1 RETAiL DL 1080p BluRay x264-Pate\Jack.Reacher.2.Kein.Weg.zurueck.2016.German.DTSD.5.1.RETAiL.DL.1080p.BluRay.x264-Pate\pate-reach2.108.mkv
Format                                   : Matroska
Format version                           : Version 4 / Version 2
File size                                : 11.4 GiB
Duration                                 : 1 h 58 min
Overall bit rate                         : 13.9 Mb/s
Encoded date                             : UTC 2017-02-09 19:56:18
Writing application                      : mkvmerge v8.0.0 ('Til The Day That I Die') 64bit
Writing library                          : libebml v1.3.1 + libmatroska v1.4.2

Video
ID                                       : 1
Format                                   : AVC
Format/Info                              : Advanced Video Codec
Format profile                           : High@L4.1
Format settings, CABAC                   : Yes
Format settings, ReFrames                : 5 frames
Codec ID                                 : V_MPEG4/ISO/AVC
Duration                                 : 1 h 58 min
Bit rate                                 : 11.1 Mb/s
Width                                    : 1 920 pixels
Height                                   : 804 pixels
Display aspect ratio                     : 2.40:1
Frame rate mode                          : Constant
Frame rate                               : 23.976 (24000/1001) FPS
Color space                              : YUV
Chroma subsampling                       : 4:2:0
Bit depth                                : 8 bits
Scan type                                : Progressive
Bits/(Pixel*Frame)                       : 0.299
Stream size                              : 9.14 GiB (80%)
Title                                    : 1080p Pate
Writing library                          : x264 core 148 r2762 90a61ec
Encoding settings                        : cabac=1 / ref=5 / deblock=1:-1:-1 / analyse=0x3:0x113 / me=umh / subme=11 / psy=1 / psy_rd=1.00:0.15 / mixed_ref=1 / me_range=16 / chroma_me=1 / trellis=2 / 8x8dct=1 / cqm=0 / deadzone=21,11 / fast_pskip=0 / chroma_qp_offset=-3 / threads=24 / lookahead_threads=2 / sliced_threads=0 / nr=0 / decimate=1 / interlaced=0 / bluray_compat=0 / constrained_intra=0 / bframes=5 / b_pyramid=2 / b_adapt=2 / b_bias=0 / direct=3 / weightb=1 / open_gop=0 / weightp=2 / keyint=250 / keyint_min=23 / scenecut=40 / intra_refresh=0 / rc_lookahead=40 / rc=crf / mbtree=1 / crf=18.0 / qcomp=0.60 / qpmin=10 / qpmax=69 / qpstep=4 / ip_ratio=1.40 / aq=1:1.00
Language                                 : English
Default                                  : Yes
Forced                                   : Yes

Audio #1
ID                                       : 2
Format                                   : DTS
Format/Info                              : Digital Theater Systems
Mode                                     : 16
Format settings, Endianness              : Big
Codec ID                                 : A_DTS
Duration                                 : 1 h 58 min
Bit rate mode                            : Constant
Bit rate                                 : 1 509 kb/s
Channel(s)                               : 6 channels
Channel positions                        : Front: L C R, Side: L R, LFE
Sampling rate                            : 48.0 kHz
Frame rate                               : 93.750 FPS (512 spf)
Bit depth                                : 24 bits
Compression mode                         : Lossy
Stream size                              : 1.25 GiB (11%)
Title                                    : DTS dubbed by Pate
Language                                 : German
Default                                  : Yes
Forced                                   : Yes

Audio #2
ID                                       : 3
Format                                   : AC-3
Format/Info                              : Audio Coding 3
Mode extension                           : CM (complete main)
Format settings, Endianness              : Big
Codec ID                                 : A_AC3
Duration                                 : 1 h 58 min
Bit rate mode                            : Constant
Bit rate                                 : 640 kb/s
Channel(s)                               : 6 channels
Channel positions                        : Front: L C R, Side: L R, LFE
Sampling rate                            : 48.0 kHz
Frame rate                               : 31.250 FPS (1536 spf)
Compression mode                         : Lossy
Stream size                              : 541 MiB (5%)
Title                                    : RETAIL
Language                                 : German
Default                                  : No
Forced                                   : No

Audio #3
ID                                       : 4
Format                                   : AC-3
Format/Info                              : Audio Coding 3
Mode extension                           : CM (complete main)
Format settings, Endianness              : Big
Codec ID                                 : A_AC3
Duration                                 : 1 h 58 min
Bit rate mode                            : Constant
Bit rate                                 : 640 kb/s
Channel(s)                               : 6 channels
Channel positions                        : Front: L C R, Side: L R, LFE
Sampling rate                            : 48.0 kHz
Frame rate                               : 31.250 FPS (1536 spf)
Compression mode                         : Lossy
Stream size                              : 541 MiB (5%)
Language                                 : English
Default                                  : No
Forced                                   : No

Text #1
ID                                       : 5
Format                                   : UTF-8
Codec ID                                 : S_TEXT/UTF8
Codec ID/Info                            : UTF-8 Plain Text
Duration                                 : 1 h 17 min
Bit rate                                 : 0 b/s
Count of elements                        : 8
Stream size                              : 171 Bytes (0%)
Title                                    : german forced
Language                                 : German
Default                                  : Yes
Forced                                   : Yes

Text #2
ID                                       : 6
Format                                   : UTF-8
Codec ID                                 : S_TEXT/UTF8
Codec ID/Info                            : UTF-8 Plain Text
Duration                                 : 1 h 57 min
Bit rate                                 : 49 b/s
Count of elements                        : 1426
Stream size                              : 42.7 KiB (0%)
Title                                    : german regular
Language                                 : German
Default                                  : No
Forced                                   : No

Text #3
ID                                       : 7
Format                                   : UTF-8
Codec ID                                 : S_TEXT/UTF8
Codec ID/Info                            : UTF-8 Plain Text
Duration                                 : 1 h 51 min
Bit rate                                 : 50 b/s
Count of elements                        : 1412
Stream size                              : 41.1 KiB (0%)
Title                                    : english regular
Language                                 : English
Default                                  : No
Forced                                   : No

Menu
00:00:00.000                             : en:00:00:00.000
00:07:00.629                             : en:00:07:00.629
00:15:19.877                             : en:00:15:19.877
00:20:33.858                             : en:00:20:33.858
00:29:04.576                             : en:00:29:04.576
00:34:35.740                             : en:00:34:35.740
00:42:40.141                             : en:00:42:40.141
00:49:28.007                             : en:00:49:28.007
00:58:44.563                             : en:00:58:44.563
01:03:10.161                             : en:01:03:10.161
01:09:35.755                             : en:01:09:35.755
01:15:05.334                             : en:01:15:05.334
01:21:59.665                             : en:01:21:59.665
01:27:07.222                             : en:01:27:07.222
01:34:14.065                             : en:01:34:14.065
01:46:44.857                             : en:01:46:44.857
01:53:30.846                             : en:01:53:30.846
Direct Download Links | DDL-Links für Jack Reacher 2 Kein Weg zurueck BD


Auf DDL-Warez werden lediglich Downloadlinks angeboten. Diese führen zu externen Inhalten/Dateien außerhalb des Einflussbereichs von DDL-Warez.
Die Inhalte/Dateien selbst werden von den oben genannten Hostern zum Download angeboten. DDL-Warez speichert keine Dateien selbst.
Es bestehen keinerlei Geschäftsbeziehungen oder Vereinbarungen zwischen DDL-Warez und den oben genannten Hostern.

Zum Schutz Deiner Privatsphäre werden auf DDL-Warez keine IP-Adressen gespeichert.
Bei Entpackungsfehlern bitte zuerst überprüfen, ob du die aktuellste Version von WinRAR verwendest.
Probleme wie "Links nicht erreichbar/offline" werden aufgrund der Vielzahl an Anfragen nicht bearbeitet.
Auf Fehlermeldungen wie "This server is currently under maintenance!" hat DDL-Warez keinen Einfluss.